Rock in Rio 2017 The Who 1080i HDTV x264 DD 5.1-ZMG

General
Complete name : Rock.in.Rio.2017.D6.The.Who.1080i.HDTV-ZMG.mkv
Format : Matroska
Format version : Version 4 / Version 2
File size : 7.30 GiB
Duration : 1h 37mn
Overall bit rate : 10.7 Mbps
Encoded date : UTC 2017-09-24 03:37:33
Writing application : mkvmerge v6.4.1 (‘Omega Point’) built on Sep 16 2013 22:05:10
Writing library : libebml v1.3.0 + libmatroska v1.4.1

Video
ID : 1
Format : AVC
Format/Info : Advanced Video Codec
Format profile : [email protected]
Format settings, CABAC : Yes
Format settings, ReFrames : 4 frames
Codec ID : V_MPEG4/ISO/AVC
Duration : 1h 37mn
Bit rate : 10.1 Mbps
Width : 1 920 pixels
Height : 1 080 pixels
Display aspect ratio : 16:9
Frame rate : 29.970 fps
Color space : YUV
Chroma subsampling : 4:2:0
Bit depth : 8 bits
Scan type : MBAFF
Bits/(Pixel*Frame) : 0.162
Stream size : 6.89 GiB (94%)
Default : Yes
Forced : No

Audio
ID : 2
Format : AC-3
Format/Info : Audio Coding 3
Mode extension : CM (complete main)
Codec ID : A_AC3
Duration : 1h 37mn
Bit rate mode : Constant
Bit rate : 384 Kbps
Channel(s) : 6 channels
Channel positions : Front: L C R, Side: L R, LFE
Sampling rate : 48.0 KHz
Bit depth : 16 bits
Compression mode : Lossy
Delay relative to video : -29ms
Stream size : 269 MiB (4%)
Language : Portuguese
Default : Yes
Forced : No

PLAYLIST

  • I Can’t Explain
  • Substitute
  • Who Are You
  • The Kids Are Alright
  • I Can See for Miles
  • My Generation
  • Bargain
  • Behind Blue Eyes
  • Join Together
  • You Better You Bet
  • I’m One
  • 5:15
  • Love, Reign O’er Me
  • Amazing Journey
  • Sparks
  • Pinball Wizard
  • See Me, Feel Me
  • Baba O’Riley
  • Won’t Get Fooled Again
  • Download:

    http://subyshare.com/lpcxm264oq9c/Rock.in.Rio.2017.D6.The.Who.1080i.HDTV-ZMG.part1.rar.html
    http://subyshare.com/1sex79pnlimu/Rock.in.Rio.2017.D6.The.Who.1080i.HDTV-ZMG.part2.rar.html
    http://subyshare.com/n6l0nvywe0cv/Rock.in.Rio.2017.D6.The.Who.1080i.HDTV-ZMG.part3.rar.html
    http://subyshare.com/wdufl6rwocad/Rock.in.Rio.2017.D6.The.Who.1080i.HDTV-ZMG.part4.rar.html
    http://subyshare.com/4wu3ik07srhn/Rock.in.Rio.2017.D6.The.Who.1080i.HDTV-ZMG.part5.rar.html
    http://subyshare.com/f9qkqzjdttbk/Rock.in.Rio.2017.D6.The.Who.1080i.HDTV-ZMG.part6.rar.html